VCB-Studio > 留言板

感谢您对 VCB-Studio 的支持!欢迎在这里提出您的宝贵意见与建议,我们会根据反馈情况决定是否采纳。

发现服务器安全问题请发邮件至 hrx#bupt.moe

FAQ

Q:你们会制作 X 动画吗?X 动画什么时候能发布?/ Do you have plans for anime X? When will you release anime X?
A:请自行查阅作品项目列表。我们不回答关于制作计划或进度的相关问题,相关评论会被直接删除。/ Please help yourself with our Project list. We do not answer questions regarding plans or progress, such comments will be deleted without notice.

Q:我下载了发现怎么没有字幕?
A:我们是压制组,不是字幕组。不过我们经常会和一些字幕组合作,在发布时带上字幕。字幕组合作都会特别注明,否则默认没有字幕。此外,欢迎访问我们友站论坛字幕分享版块,应该可以找到绝大部分我们压制作品的中文字幕。

Q:下载被举报/和谐了,能不能补个链接?
A:正常的 BT 不存在这种事情。请使用正常的 BT 客户端(不要使用迅雷之类)。

Q:贴子里的链接怎么都打不开?
A:各网站可用性不一,对于时常存在的访问障碍我们爱莫能助,请自行寻找合适且合理的上网工具进行访问。

Q:你们是如何修复和处理视频的?
A:欢迎查阅 VCB-Studio 开放课程:新版(更新完毕)旧版(已过时,仅供参考)

3,503 条评论

  1. 咱们站是不是IPv4被干了啊?我学校里面宽带只有IPv4,上不去了,用在线ping工具也ping不通,用蜂窝网络IPv6才能上。

  2. 最近老是出现异常的大量上传,怀疑跟那群用PCDN薅羊毛的人有关。因为最近right.com.cn里有个人分享了个能刷下载量而且不下载到硬盘的程序,多半就是为了让上下行流量一致,避免运营商封禁。请问这个有什么办法解决吗

  3. 大概两个小时前,有个客户端叫Taipei Torrent的开始吸我带宽,IP端口号是218.92.139.130:32446,这是不是继github.com/anacrolix/torrent和dt/torrent后第三个吸血客户端了?

    1. 回复给西北流士: 请参考文档https://docs.qq.com/doc/DQnJBTGJjSFZBR2JW

      还有anacrolix的讨论串https://github.com/anacrolix/torrent/discussions/891

    2. 回复给西北流士: 我最近两三天每天被吸 2T 左右的上行流量,我还以为是有很多人在下载 qwq。今天仔细看了下才发现是有 ip 在吸血。 😥

  4. 求助!MPC-HC播放一支视频的时候回报以下信息被强制关闭,求助高人指点>>>
    报错信息:
    An error has occurred.MPC-HC will close now
    Exception:
    ACCESS VIOLATION
    Crashing module:
    F:\xy-VSFilter_3.0.0.306_x64\VSFilter.dll
    Offset: 0xB51c0, Codebase: 0x7FFFD06E0000
    The thread 14652 tried to read memory at address 0x7097F000
    视频信息:
    Video: HVC1 3840×2160 23.976fps [V: Japanese [jpn] (hevc main 10 L5.0, yuv420p10le, 3840×2160) [default]]
    Audio: FLAC (framed) 48000Hz stereo 2304kbps [A: Japanese [jpn] (flac, 48000 Hz, stereo, s24) [default]]
    Audio: FLAC (framed) 48000Hz stereo 2304kbps [A: オーディオコメンタリー [jpn] (flac, 48000 Hz, stereo, s24)]
    Subtitle: Advanced SubStation Alpha [S: 简体中文 [chi] (ass) [default]]
    Subtitle: Advanced SubStation Alpha [S: 繁體中文 [chi] (ass) [default]]
    Subtitle: Advanced SubStation Alpha [S: 日本語 ass [jpn] (ass) [default]]
    Subtitle [S: 日本語 PGS [jpn] (pgs)]
    Subtitle [S: Forced Subtitles (auto)]
    Subtitle: UTF-8 [S: No subtitles]
    是[subbers] Violet Evergarden [BDRip 4K-upconv HEVC-yuv420p10 FLACx2 ASSx3 PGS]
    查找错误信息没找到有用的帮助内容,所以想在VCB这问问
    详细的MediaInfo感觉太占版面了,不敢贴,如果需要的话再贴。。。
    请求高人帮助解惑!

  5. 你好,我安装了k-lite pack mega版本的软件包,最近播放一个mkv格式的视频识别不到音轨,没有声音,能请教下怎么解决吗?很感谢。potplayer也一样没声音,用windows自带的媒体播放器有声音。视频文件:[韩剧][好久没做][Long.Time.No.Sex.S01.2024.1080p.WEB-DL.AAC.H.264-HDSWEB]

    1. 回复给song4777:

      播放的文件信息
      General
      Unique ID : 165640610218953358493687539521816053370 (0x7C9D389B7FBB2275ED7997327F37467A)
      Complete name : E:\影音\好久没做.Long.Time.No.Sex.S01.2024.1080p.WEB-DL.AAC.H264-HDSWEB\好久没做.Long.Time.No.Sex.S01E06.2024.1080p.WEB-DL.AAC.H264-HDSWEB.mkv
      Format : Matroska
      Format version : Version 4
      File size : 3.41 GiB
      Duration : 1 h 3 min
      Overall bit rate : 7 740 kb/s
      Frame rate : 29.970 FPS
      Encoded date : 2024-02-02 05:57:26 UTC
      Writing application : mkvmerge v71.1.0 ('Fortitude') 64-bit
      Writing library : libebml v1.4.4 + libmatroska v1.7.1

      Video
      ID : 4
      Format : AVC
      Format/Info : Advanced Video Codec
      Format profile : [email protected]
      Format settings : CABAC / 1 Ref Frames
      Format settings, CABAC : Yes
      Format settings, Reference fra : 1 frame
      Format settings, GOP : M=1, N=60
      Codec ID : V_MPEG4/ISO/AVC
      Duration : 1 h 3 min
      Bit rate mode : Constant
      Bit rate : 7 612 kb/s
      Nominal bit rate : 8 000 kb/s
      Width : 1 920 pixels
      Height : 1 080 pixels
      Display aspect ratio : 16:9
      Frame rate mode : Constant
      Frame rate : 29.970 (30000/1001) FPS
      Color space : YUV
      Chroma subsampling : 4:2:0
      Bit depth : 8 bits
      Scan type : Progressive
      Bits/(Pixel*Frame) : 0.122
      Stream size : 3.36 GiB (98%)
      Default : Yes
      Forced : No

      Audio
      ID : 1
      Format : AAC LC
      Format/Info : Advanced Audio Codec Low Complexity
      Codec ID : A_AAC-2
      Duration : 1 h 3 min
      Bit rate : 125 kb/s
      Channel(s) : 2 channels
      Channel layout : L R
      Sampling rate : 48.0 kHz
      Frame rate : 46.875 FPS (1024 SPF)
      Compression mode : Lossy
      Stream size : 56.6 MiB (2%)
      Title : 韩语
      Language : Korean
      Default : No
      Forced : No

      Text #1
      ID : 2
      Format : UTF-8
      Codec ID : S_TEXT/UTF8
      Codec ID/Info : UTF-8 Plain Text
      Duration : 1 h 0 min
      Bit rate : 47 b/s
      Frame rate : 0.225 FPS
      Count of elements : 812
      Stream size : 20.9 KiB (0%)
      Title : 简体中文
      Language : Chinese (China)
      Default : Yes
      Forced : No

      Text #2
      ID : 3
      Format : UTF-8
      Codec ID : S_TEXT/UTF8
      Codec ID/Info : UTF-8 Plain Text
      Duration : 1 h 0 min
      Bit rate : 47 b/s
      Frame rate : 0.225 FPS
      Count of elements : 812
      Stream size : 20.9 KiB (0%)
      Title : 繁體中文
      Language : Chinese (HK)
      Default : No
      Forced : No

  6. 最近分流是出啥问题了吗w以前都抢不到什么上传,结果最近经常十几个种在同时跑,两三个周上传几个T了有点吓人 😕

    1. 回复给时光的对岸: 你去观察一下是不是有个github什么的客户端在疯狂吸血,这个客户端好像是出了什么bug导致一直在吸血。

  7. 想问大家一个问题,各位补番的时候是存在机械硬盘补的还是固态硬盘啊?观看时两者的观看体验有明显差距吗?比如拖动进度条会卡顿之类的,最近电脑两块固态硬盘存储空间都告急了,想上一块16T的希捷银河,准备到时候把资源都导到机械硬盘里,不过害怕看的时候体验不好,很是纠结,请问大伙们有无经验分享分享

    1. 回复给梨咲: 兄弟们问题已解决,在mpv里加两行设置缓存的代码,我内存32G平时最多用三分之一,缓存直接拉10G了,这下可以随意调戏进度条了!!

    2. 回复给梨咲: 只要机械硬盘没其他负载,几乎没感觉。如果有较多线程的IO,可能会有轻度卡顿。既然问出这个问题,说明家里没矿,建议出门左转并夕夕整俩矿盘。性价比x14高一些,x16比x14每TB价格贵不少,但据说x14有设计缺陷,建议根据经济状况和丢失数据的承受力自行考量。以及,硬盘看脸。全新国行都有几天就挂的(好像说多了吧((

        1. 回复给梨咲: 这个价格以及x18大概率是拉出去锻炼过的,说是全新大概率是清零盘,买回来留个心眼吧。保险起见或许可以考虑把所有种子留个备份,盘炸了再挂两天bt,不会太疼。氦气盘注意磕碰痕迹,整体也算是比较长寿。总的来说就是好盘赖盘都会炸,数据备份最重要(逃

    3. 回复给梨咲: 都用本地硬盘看了,大概率都是超级流畅的。番剧大小也就是个把G,正常的硬盘都是无压力。我一般看番都是放到服务器上的,过了一层网络感觉内网都是贼啦流畅,只有公网的时候得要等

  8. 大佬们,请问下你们压制使用的原盘是选择分卷(Vol.x)形式的还是BD-BOX(DISC)形式的呀?这两者有什么区别吗?一般都是选择日版BD么

    1. 比较新的片子基本都用分卷,因为没有 box;老片有些会用 bdbox。

      绝大多数时候(视频本身)都没有区别,bdbox 有时会有新的特典视频。

      一般都是日版。不是日版时应该都会说明。

        1. 我只是说“老片有些会用 bdbox”,你是如何理解出优先使用分卷的意思的……

          分卷和 box 都有的情况下,哪个内容更全用哪个;如果不是真子集关系,为了内容尽可能完整,也有可能两个都用;要不然就是哪个方便用哪个,或者看心情。

  9. 想问问有没有支持“断点续传”的转码软件?硬盘里有很多时长数小时的4k60原始素材,使用比较高的压缩率归档hevc预计每个视频都需要转码数十个小时,归档av1甚至要按天算,如何防止意外断电或者系统崩溃导致转码失败是个问题。有考虑过放在虚拟机里转码利用虚拟机的快照功能,但是视频素材全都几十上百GB,在虚拟机中移动和快照实在是太麻烦了

    1. 回复给tsuzing: 我想可以利用 FFmpeg 配合脚本进行分段编码,即使发生意外也只会丢失一小部分。而且 FFmpeg 也可以无损链接这些分段。

  10. 想请问一下下魔女之旅的时候是内封字幕的,下的动漫文件也给了一个字体包,内封字幕的需要安装字体吗?

    1. 内封了字体的就不用,否则还是需要。

      本质上字幕外挂或内封和是否需要装字体是没有直接关系的。要看是否内封了字体。

  11. 昨天中午我在蜜柑看到vcb已经发布小书痴就去下载 睡醒发现蜜柑 动漫花园 nyaa都没有这条 来论坛也没有小书痴的帖子 但是还在qb上传 这就是小萌老师说的'自分だけの現実'吗?

欢迎留言

此站点使用Akismet来减少垃圾评论。了解我们如何处理您的评论数据