原盘画质一般,原生分辨率为 720p。线条有不少拉升带来的锯齿和振铃,但最大的问题是很多片段没有好好润线,出现了非常严重的二值化锯齿。我们首先进行了逆向拉伸重构以去除常规场景的锯齿并保证锐利度,然后使用了大量的分段对没好好润线的部分进行强力的连线处理。最后是常规的去色带、补偿性锐化和自适应降噪。
另外值得一提的是,虽然 OVA ED 的动画部分经过了缩小处理,但我们处理 NCED 的时候发现其原生分辨率为 1080p,而且线条几乎没有问题,这个在当年还是蛮罕见的。我们的处理手段是轻微的抗锯齿、去色带和补偿性锐化。

总监:毕竟本作加上 OVA 一共 27 集,而且还要肉眼检查、手动分段,可以说是一个大工程了。尽管排查了很多次,但仍不排除有漏掉或者抗锯齿力度不够的地方,这种时候大家就当它是特效好了 2333。

TV: 未来日记 / Mirai Nikki / 未来日記
10-bit 1080p HEVC + FLAC + AAC,MKV 格式。每话约 1.1 GB。
内封评论音轨

OVA: 未来日记 Redial / Mirai Nikki Redial / 未来日記リダイヤル
10-bit 1080p HEVC + FLAC,MKV 格式。OVA 全篇约 1.1 GB。

General
Unique ID                                : 134110672368195594043202027171867028837 (0x64E4C6A6777E6F233F5AFC1346286D65)
Complete name                            : D:\SAYA IS ∞ LOLICON!\[VCB-Studio] Mirai Nikki [Ma10p_1080p]\[VCB-Studio] Mirai Nikki [01][Ma10p_1080p][x265_flac_aac].mkv
Format                                   : Matroska
Format version                           : Version 4
File size                                : 1.07 GiB
Duration                                 : 25 min 20 s
Overall bit rate mode                    : Variable
Overall bit rate                         : 6 031 kb/s
Encoded date                             : UTC 2022-07-05 14:21:09
Writing application                      : mkvmerge v48.0.0 ('Fortress Around Your Heart') 64-bit
Writing library                          : libebml v1.4.0 + libmatroska v1.6.0

Video
ID                                       : 1
Format                                   : HEVC
Format/Info                              : High Efficiency Video Coding
Format profile                           : Main [email protected]@High
Codec ID                                 : V_MPEGH/ISO/HEVC
Duration                                 : 25 min 20 s
Bit rate                                 : 5 165 kb/s
Width                                    : 1 920 pixels
Height                                   : 1 080 pixels
Display aspect ratio                     : 16:9
Frame rate mode                          : Constant
Frame rate                               : 23.976 (24000/1001) FPS
Color space                              : YUV
Chroma subsampling                       : 4:2:0
Bit depth                                : 10 bits
Bits/(Pixel*Frame)                       : 0.104
Stream size                              : 936 MiB (86%)
Writing library                          : x265 3.5+97-ga456c6e73+1-g9859a8cb5:[Windows][clang 14.0.0][64 bit] Kyouko 10bit+8bit+12bit
Encoding settings                        : rc=crf / crf=14.5000 / qcomp=0.67 / qpstep=4 / stats-write=0 / stats-read=0 / vbv-maxrate=38000 / vbv-bufsize=40000 / vbv-init=0.9 / min-vbv-fullness=50.0 / max-vbv-fullness=80.0 / crf-max=0.0 / crf-min=0.0 / no-lossless / no-cu-lossless / aq-mode=3 / aq-strength=1.00 / aq-bias-strength=0.70 / cbqpoffs=-2 / crqpoffs=-2 / ipratio=1.40 / pbratio=1.20 / psy-rd=2.00 / psy-rdoq=1.20 / deblock=-1:-1 / ref=5 / limit-refs=0 / no-limit-modes / bframes=10 / b-adapt=2 / bframe-bias=0 / b-pyramid / b-intra / weightp / weightb / min-keyint=1 / max-keyint=360 / rc-lookahead=80 / gop-lookahead=0 / scenecut=40 / hist-scenecut=0 / radl=0 / max-cu-size=32 / min-cu-size=8 / me=3 / subme=5 / merange=38 / rdoq-level=1 / rd=5 / rdpenalty=0 / dynamic-rd=0.00 / rd-refine / ----- / cutree / no-sao / rect / no-amp / no-open-gop / wpp / no-pmode / no-pme / no-psnr / no-ssim / nr-intra=0 / nr-inter=0 / no-constrained-intra / no-strong-intra-smoothing / max-tu-size=16 / tu-inter-depth=4 / tu-intra-depth=4 / limit-tu=0 / qg-size=32 / qpmax=69 / qpmin=0 / ----- / cpuid=1111039 / frame-threads=5 / numa-pools=+ / log-level=2 / input-csp=1 / input-res=1920x1080 / interlace=0 / level-idc=0 / high-tier=1 / uhd-bd=0 / no-allow-non-conformance / no-repeat-headers / no-aud / no-hrd / info / hash=0 / no-temporal-layers / lookahead-slices=0 / no-splice / no-intra-refresh / no-ssim-rd / signhide / tskip / max-merge=5 / temporal-mvp / no-frame-dup / no-hme / no-analyze-src-pics / no-sao-non-deblock / selective-sao=0 / no-early-skip / no-rskip / no-fast-intra / no-tskip-fast / no-splitrd-skip / zone-count=0 / no-strict-cbr / no-rc-grain / no-const-vbv / sar=0 / overscan=0 / videoformat=5 / range=0 / colorprim=1 / transfer=1 / colormatrix=1 / chromaloc=0 / display-window=0 / cll=0,0 / min-luma=0 / max-luma=1023 / log2-max-poc-lsb=8 / vui-timing-info / vui-hrd-info / slices=1 / no-opt-qp-pps / no-opt-ref-list-length-pps / no-multi-pass-opt-rps / scenecut-bias=0.05 / hist-threshold=0.03 / no-opt-cu-delta-qp / no-aq-motion / no-hdr10 / no-hdr10-opt / no-dhdr10-opt / no-idr-recovery-sei / analysis-reuse-level=0 / analysis-save-reuse-level=0 / analysis-load-reuse-level=0 / scale-factor=0 / refine-intra=0 / refine-inter=0 / refine-mv=1 / refine-ctu-distortion=0 / no-limit-sao / ctu-info=0 / no-lowpass-dct / refine-analysis-type=0 / copy-pic=1 / max-ausize-factor=1.0 / no-dynamic-refine / no-single-sei / no-hevc-aq / no-svt / no-field / qp-adaptation-range=1.00 / scenecut-aware-qp=0conformance-window-offsets / right=0 / bottom=0 / decoder-max-rate=0 / no-vbv-live-multi-pass
Default                                  : Yes
Forced                                   : No
Color range                              : Limited
Color primaries                          : BT.709
Transfer characteristics                 : BT.709
Matrix coefficients                      : BT.709

Audio #1
ID                                       : 2
Format                                   : FLAC
Format/Info                              : Free Lossless Audio Codec
Codec ID                                 : A_FLAC
Duration                                 : 25 min 20 s
Bit rate mode                            : Variable
Bit rate                                 : 679 kb/s
Channel(s)                               : 2 channels
Channel layout                           : L R
Sampling rate                            : 48.0 kHz
Frame rate                               : 11.719 FPS (4096 SPF)
Bit depth                                : 16 bits
Compression mode                         : Lossless
Stream size                              : 123 MiB (11%)
Writing library                          : libFLAC 1.3.2 (UTC 2017-01-01)
Language                                 : Japanese
Default                                  : Yes
Forced                                   : No

Audio #2
ID                                       : 3
Format                                   : AAC LC
Format/Info                              : Advanced Audio Codec Low Complexity
Codec ID                                 : A_AAC-2
Duration                                 : 25 min 20 s
Bit rate                                 : 184 kb/s
Channel(s)                               : 2 channels
Channel layout                           : L R
Sampling rate                            : 48.0 kHz
Frame rate                               : 46.875 FPS (1024 SPF)
Compression mode                         : Lossy
Stream size                              : 33.4 MiB (3%)
Title                                    : Commentary
Language                                 : Japanese
Default                                  : No
Forced                                   : No

Menu
00:00:00.000                             : en:Chapter 01
00:00:44.044                             : en:Chapter 02
00:02:14.009                             : en:Chapter 03
00:11:01.995                             : en:Chapter 04
00:22:09.328                             : en:Chapter 05
00:23:47.051                             : en:Chapter 06
00:25:11.009                             : en:Chapter 07

Pop Team Epic / pop子和pipi美的日常 10-bit 1080p HEVC BDRip [S1 Fin]

“世间并无黑暗,只有愚昧。” ——威廉·莎士比亚 教科书级的色带,晕轮,锯齿,处理上进行了针对问题的保护性修复并进行了噪点强度调整。部分集数有长时间强噪点...

阅读全文

Gekijouban Kin-iro Mosaic: Thank You!! / 黄金拼图/金色的马赛克 剧场版 Thank You!! 10-bit 1080p HEVC BDRip [MOVIE]

原盘画质一般,作为剧场版来说质量较差。线条问题严重,润线做得非常不到位,锯齿到处都是,此外还有后期锐化导致的振铃。我们采用强力手段清除锯齿和振铃,...

阅读全文

takt op.Destiny / 宿命回响 10-bit 1080p HEVC BDRip [Fin]

这个项目与 喵萌奶茶屋 合作,感谢他们精心制作的字幕。 takt op.destiny的原盘质量一般,其画面特色为线条的RGB shift特效,以及带有锐化效果的背景纹理。由...

阅读全文

10 条评论

欢迎留言

此站点使用Akismet来减少垃圾评论。了解我们如何处理您的评论数据